Criar um Site Grátis Fantástico


Total de visitas: 19270
All.Saints.-.Red.Flag..2016..[FLAC]

 

All.Saints.-.Red.Flag..2016..[FLAC] >>> http://shurll.com/bixax

 

 

 

 

 

 

 

 

 

 

 

 

 

 

 

 

 

 

 

 

 

 

 

 

 

 

 

 

 

 

 

 

 

 

 

 

 

 

 

 

 

 

 

 

 

 

 

 

 

 

 

 

 

 

 

 

 

All.Saints.-.Red.Flag..2016..[FLAC], nds inazuma eleven 2: tempesta di fuoco

 

Ratchet Behaviour 10. Deluxe Edition - 2015 All Saints Format: FLAC (image .cue)Quality: losslessSample Rate: 44.1 kHz / 16 BitSource: CDArtist: All SaintsTitle: Red FlagLabel, Catalog: London Records, 4780819Genre: PopRelease Date: 2016Scans: included Size .zip: 325 mb:01. Puppet On a String 08. Fear 09. Information to the news Views: 217 Author: david007 Date: 9-04-2016, 12:20 0 1 2 3 4 5 .

 

Audio. Tribal [04:05]12. TV shows. Bongo won by a narrow 5,594 votes of a total 627,805 registered voters. FLAC DOWNLOAD FOR FRE WITHOUT REGISTERING Pop, Disco, Eurodance All Saints - Red Flag (2016) .

 

9-04-2016, 12:20. Pieces [04:06]" "Exact Audio Copy V1.1 from 23. April 2016, 19:23All Saints / Red FlagUsed drive : HL-DT-STDVDRAM GH24NSD1 Adapter: 0 ID: 0Read mode : SecureUtilize accurate stream : YesDefeat audio cache : YesMake use of C2 pointers : NoRead offset correction : 6Overread into Lead-In and Lead-Out : NoFill up missing offset samples with silence : YesDelete leading and trailing silent blocks : NoNull samples used in CRC calculations : YesUsed interface : Installed external ASPI interfaceUsed output format : Internal WAV RoutinesSample format : 44.100 Hz; 16 Bit; StereoTOC of the extracted CD Track Start Length Start sector End sector --------------------------------------------------------- 1 0:00.00 3:33.45 0 16019 2 3:33.45 4:01.16 16020 34110 3 7:34.61 3:46.07 34111 51067 4 11:20.68 3:43.42 51068 67834 5 15:04.35 4:49.30 67835 89539 6 19:53.65 4:00.17 89540 107556 7 23:54.07 3:24.25 107557 122881 8 27:18.32 3:56.64 122882 140645 9 31:15.21 3:54.30 140646 158225 10 35:09.51 4:19.25 158226 177675 11 39:29.01 4:05.47 177676 196097 12 43:34.48 4:06.55 196098 214602 Range status and errorsSelected range Filename E:SPOTNETAll Saints - Red Flag (EAC)All Saints - Red Flag.wav Peak level 100.0 % Extraction speed 7.0 X Range quality 100.0 % Test CRC 4FD5AA24 Copy CRC 4FD5AA24 Copy OKNo errors occurred AccurateRip summary Track 1 not present in databaseTrack 2 not present in databaseTrack 3 not present in databaseTrack 4 not present in databaseTrack 5 not present in databaseTrack 6 not present in databaseTrack 7 not present in databaseTrack 8 not present in databaseTrack 9 not present in databaseTrack 10 not present in databaseTrack 11 not present in databaseTrack 12 not present in database None of the tracks are present in the AccurateRip databaseEnd of status report" (.CUE)"REM GENRE PopREM DATE 2016REM DISCID 990B2D0CREM COMMENT "ExactAudioCopy v1.1"PERFORMER "All Saints"TITLE "Red Flag"FILE "All Saints - Red Flag.wav" WAVE TRACK 01 AUDIO TITLE "One Strike" PERFORMER "All Saints" INDEX 01 00:00:00 TRACK 02 AUDIO TITLE "One Woman Man" PERFORMER "All Saints" INDEX 01 03:33:45 TRACK 03 AUDIO TITLE "Make U Love Me" PERFORMER "All Saints" INDEX 00 07:34:43 INDEX 01 07:34:61 TRACK 04 AUDIO TITLE "Summer Rain" PERFORMER "All Saints" INDEX 00 11:20:31 INDEX 01 11:20:68 TRACK 05 AUDIO TITLE "This Is a War" PERFORMER "All Saints" INDEX 00 15:04:07 INDEX 01 15:04:35 TRACK 06 AUDIO TITLE "Who Hurt Who" PERFORMER "All Saints" INDEX 00 19:53:63 INDEX 01 19:53:65 TRACK 07 AUDIO TITLE "Puppet On a String" PERFORMER "All Saints" INDEX 00 23:53:63 INDEX 01 23:54:07 TRACK 08 AUDIO TITLE "Fear" PERFORMER "All Saints" INDEX 00 27:18:08 INDEX 01 27:18:32 TRACK 09 AUDIO TITLE "Ratchet Behaviour" PERFORMER "All Saints" INDEX 01 31:15:21 TRACK 10 AUDIO TITLE "Red Flag" PERFORMER "All Saints" INDEX 01 35:09:51 TRACK 11 AUDIO TITLE "Tribal" PERFORMER "All Saints" INDEX 00 39:28:42 INDEX 01 39:29:01 TRACK 12 AUDIO TITLE "Pieces" PERFORMER "All Saints" INDEX 00 43:32:19 INDEX 01 43:34:48 DOWNLOAD REPORT DEAD LINKS (0) Comments To All Saints - Red Flag (2016) Be the First to Comment Username * Email * Comment : THE BEST MUSIC FLAC DOWNLOAD FOR FREE Lenny Kravitz - Black and White America: Collectors Edition - 2011 (27-07-2015) Best Of Vocal Trance 2016 (2015) (8-12-2015) Ali Gray - Christmas With You (2015) (7-12-2015) Rush - R40 Live - 2015 (Hi-Res stereo) (7-12-2015) Rush - Clockwork Angels Tour - 2013 (Hi-Res stereo) (7-12-2015) Sandra Van Nieuwland - Breaking New Ground (2015) (7-12-2015) Kate Boy - One (2015) (7-12-2015) Billy Sherwood - Citizen (2015) (7-12-2015) 538 Dance Smash 2015 Vol. Summer Rain 05. Torrent Core Copyright 2016 Generated in 0.001 seconds INFO Faq Copyright LATEST SEARCHES ps vita Miraculous-Tales of Ladybug and Cat Noir wifeysworld Crystal Swift beatles 69 Hashimoto Arina team os windows True Detective 2014 office 2010 Doctor Foster FRIENDS flashtorrents.org p2pdl.com btstorrent.cc Mixtape Database . One Strike [03:33]02. 888d446efb

net framework 4 0 v 30319 offline
538 Hitzone 76 (2CD) MP3 2LT538 Hitzone 76 (2CD) MP3 2LT
3121761/Total Abs - Build a Rock-Hard Midsection in Four Weeks by Muscle
ganong fisiologia medica pdf
latest hotspot shield with crack
503-gen-a-fullchickhen-r2
driver lexmark 3100 series windows 7
Three Dimensional Therapy Study Course
Sheep, Dog, 'n' Wolf
All.Cars.go.to.Heaven.-.Volume.1:.The.Washington.Discovery.Rout